#TITLE:Pure Ruby;
#SUBTITLE:;
#ARTIST:Shiki;
#TITLETRANSLIT:;
#SUBTITLETRANSLIT:;
#ARTISTTRANSLIT:;
#CREDIT:JennyXD;
#BANNER:purebanner.bmp;
#BACKGROUND:pureruby.bmp;
#LYRICSPATH:;
#CDTITLE:!jennytitle.png;
#MUSIC:Pure Ruby.mp3;
#OFFSET:-0.699;
#SAMPLESTART:19.560;
#SAMPLELENGTH:11.500;
#SELECTABLE:YES;
#BPMS:0.000=178.002;
#STOPS:;
#BGCHANGES:;
// cache tags:
#FIRSTBEAT:16.000;
#LASTBEAT:376.000;
#SONGFILENAME:Songs/Music V.I.P ^_^/(JennyXD) Pure Ruby/roarz.sm;
#HASMUSIC:1;
#HASBANNER:1;
#MUSICLENGTH:133.674;
// end cache tags

//---------------dance-single - ----------------
#NOTES:
     dance-single:
     :
     Beginner:
     18:
     1.000,1.000,1.000,0.180,1.000,1060.000,522.000,24.000,0.000,57.000:
0000
0000
0000
0000
,
0000
0000
0000
0000
,
0000
0000
0000
0000
,
0000
0000
0000
0000
,
1011
0000
0100
0000
0010
0000
0100
0000
1010
0100
1010
0001
1100
0010
0101
0010
,
1101
0010
0100
0011
0100
1001
0110
0011
,
1100
0000
0010
0000
0100
0000
0001
0000
1010
0100
1010
0001
1100
0010
0101
1000
,
0110
0001
0000
0000
0000
0000
0000
0000
1000
0000
0000
0000
0000
0000
0000
0000
0011
0000
0000
0000
0000
0000
0000
0000
1100
0000
0000
0000
0000
0000
0000
0000
0010
0000
0000
0000
0000
0000
0000
0000
0101
0000
0000
0000
0000
0000
0000
0000
1010
0000
0000
0000
0000
0000
0000
0000
0001
0000
0000
0000
0000
0000
0000
0000
,
0110
0000
0001
0000
1000
0000
0100
0000
1001
0010
0101
1000
0011
0100
1010
0100
,
1011
0100
0001
1010
0001
0100
0011
0100
,
1011
0100
0011
0100
1001
0100
1010
0001
1010
0100
1001
0010
1100
0001
1010
0100
,
1011
0100
1010
0001
1100
0010
0101
0010
1001
0010
0101
1000
0101
0010
0101
1000
,
0010
0000
0000
0000
,
0000
0000
0000
0000
,
1021
0100
0001
0100
1000
0100
0031
0100
,
1200
0000
0000
0010
0000
0000
0301
0000
0000
0010
0000
0000
1001
0000
0100
1000
0010
0000
0101
0000
1000
0010
0100
0000
,
0021
0100
0001
0100
1030
0100
0011
0100
,
1200
0010
0301
0100
1010
0010
0101
0010
,
2100
3010
0001
0120
1030
0100
0011
0100
,
1200
0310
0001
2010
3100
0010
1001
0100
,
1020
0100
0001
0100
1030
0010
0101
1010
,
0201
0010
1300
0010
2001
0100
3010
0100
,
1021
0100
0001
0100
1000
0100
0031
0100
,
1200
0000
0000
0010
0000
0000
0301
0000
0000
0010
0000
0000
1001
0000
0100
1000
0010
0000
0101
0000
1000
0010
0100
0000
,
0021
0100
0001
0100
1030
0100
0011
0100
,
1200
0010
0301
0100
1010
0010
0101
0010
,
2100
3010
0001
0120
1030
0100
0011
0100
,
1200
0310
0001
2010
3100
0010
1001
0100
,
1020
0100
0001
0100
1030
0010
0101
1010
,
0201
0010
1300
0010
2001
0100
3010
0100
,
1011
0100
0101
0110
1000
0101
0011
0110
,
1100
0010
0101
0110
1000
0101
0011
1010
,
1100
0010
0011
0100
1010
0110
0001
1010
,
1000
0000
0110
0000
0001
0000
0110
0000
1000
0000
0101
0000
1010
0100
1010
0001
,
1200
0010
0001
0310
1000
1010
0001
0110
,
1000
0011
0100
1001
0100
1010
0101
1010
,
1200
0010
0001
0010
1000
0010
0001
0010
,
1000
0000
0000
0000
0010
0000
0000
0000
0001
0000
0000
0000
0010
0000
0000
0000
1300
0000
0000
0000
0010
0000
0000
0000
0001
0100
0010
1000
0001
0100
0010
1000
,
0101
0010
1100
0001
1110
0001
1010
0100
1010
0001
1010
0100
1011
0100
0011
0100
,
1001
0010
1100
0001
1110
0001
0110
0001
1010
0100
0011
0100
1011
0100
1001
0100
,
1010
0100
1001
0010
1101
0010
0101
1000
0011
0100
1010
0100
1011
0100
1001
0100
,
0011
0000
0000
0100
0000
0000
1001
0000
0000
0010
0000
0000
1101
0000
0000
0010
0000
0000
0101
0000
0010
0000
0100
0000
1001
0000
0000
0010
0000
0000
1001
0000
0000
0100
0000
0000
1011
0000
0000
0100
0000
0000
1001
0000
0010
0000
0100
0000
,
1001
0000
0000
0100
0000
0000
1001
0000
0000
0010
0000
0000
1101
0000
0000
0010
0000
0000
0101
0000
0000
1000
0000
0000
0101
0000
0010
0000
0100
0000
1001
0000
0010
0000
0100
0000
1011
0000
0000
0100
0000
0000
0011
0000
0000
1000
0000
0000
,
0011
0100
1010
0001
1110
0001
1100
0010
1001
0100
1010
0001
1110
0001
1100
0010
,
1001
0100
1001
0010
1101
0010
1100
0001
1010
0100
1001
0010
1101
0010
1100
0001
,
0110
0001
1010
0100
1011
0100
1010
0001
1100
0010
0101
1000
0111
1000
0101
0010
,
1101
0010
1100
0001
1110
0001
1010
0100
1010
0001
1010
0100
1011
0100
0011
0100
,
1001
0010
1100
0001
1110
0001
0110
0001
1010
0100
0011
0100
1011
0100
1001
0100
,
1010
0100
1001
0010
1101
0010
0101
1000
0011
0100
1010
0100
1011
0100
1001
0100
,
0011
0000
0000
0100
0000
0000
1001
0000
0000
0010
0000
0000
1101
0000
0000
0010
0000
0000
0101
0000
0010
0000
0100
0000
1001
0000
0000
0010
0000
0000
1001
0000
0000
0100
0000
0000
1011
0000
0000
0100
0000
0000
1001
0000
0010
0000
0100
0000
,
1001
0000
0000
0100
0000
0000
1001
0000
0000
0010
0000
0000
1101
0000
0000
0010
0000
0000
0101
0000
0000
1000
0000
0000
0101
0000
0010
0000
0100
0000
1001
0000
0010
0000
0100
0000
1011
0000
0000
0100
0000
0000
0011
0000
0000
1000
0000
0000
,
0011
0100
1010
0001
1110
0001
1100
0010
1001
0100
1010
0001
1110
0001
1100
0010
,
1001
0100
1001
0010
1101
0010
1100
0001
1010
0100
1001
0010
1101
0010
1100
0001
,
0110
0000
0001
0000
1010
0000
0100
0000
1011
0000
0100
0000
1010
0000
0001
0000
1100
0000
0010
0000
1101
0000
0010
0000
0100
1000
0001
0010
0100
1000
0001
0010
,
0100
0000
0000
1000
0000
0000
0000
0000
,
0000
0000
0000
1000
0000
0000
0100
0000
0010
0000
0001
0000
,
1000
0000
0000
0000
,
0001
0000
0000
0010
0000
0000
0100
0000
,
1000
0000
0000
0000
,
1000
0000
0000
0001
0000
0000
0010
0000
,
0100
0000
0000
0010
0000
0000
0000
0000
,
0000
0000
0000
0000
1000
0000
0000
0000
0000
0000
0000
0000
1000
0000
0000
0000
0000
0000
0000
0000
1000
0000
0000
0000
1000
0100
0010
0001
1000
0100
0010
0001
,
1100
0010
0001
1010
0100
0010
0001
0010
,
0100
0000
0000
0010
0000
0000
1001
0000
0000
0010
0000
0000
1100
0000
0000
0100
0010
0000
1000
0000
0001
0100
0000
0000
,
1010
0100
0001
0010
0100
0010
0001
0010
,
1001
0100
0001
0110
1000
0100
1011
0100
,
1110
0010
0001
0100
1000
0100
0001
0010
,
1100
0010
0001
0101
1000
0100
0011
0100
,
1001
0100
0001
0110
1000
0010
1100
0010
,
0001
0000
0000
0000
0000
0000
0000
0000
0000
0000
0000
0000
0000
0000
0000
0000
0000
0000
0000
0000
1000
0000
0000
0000
1000
0100
0010
0001
1000
0100
0010
0001
,
0110
1000
0101
1000
0111
0000
0101
1000
0110
1000
0101
0000
0111
1000
0011
1000
,
0011
0100
1010
0100
1011
0000
1010
0100
0011
0100
1010
0000
1110
0001
1010
0001
,
1010
0100
0011
0100
1011
0000
0011
0100
1010
0100
0011
0000
1011
0100
0011
1000
,
0110
1000
0101
1000
0111
0000
0101
1000
0110
1000
0101
0000
0111
1000
0101
1000
,
0110
0001
1100
0001
1110
0000
1100
0001
0110
0001
1100
0000
1101
0010
1001
0100
,
0011
1000
0110
1000
0111
0000
0110
1000
0011
1000
0110
0000
1011
0100
0011
0100
,
0011
1000
0101
1000
0111
0000
0101
1000
0011
1000
0101
0000
1101
0010
1001
0100
,
1010
0000
0000
0000
1000
0100
0010
0001
1100
0000
0000
0000
0001
0010
0100
1000
0001
0000
0000
0000
1000
0100
0010
0001
1100
0000
0000
0000
0001
0010
0100
1000
,
0011
1100
0011
1100
0011
1000
0101
1010
0101
1010
0101
1000
0110
1001
0110
1001
,
0110
1001
0110
1001
0110
0001
1100
0011
1100
0011
1100
0001
1010
0101
1010
0101
,
1010
0101
1010
0101
1010
0001
1100
0011
1100
0011
1100
0001
1010
0101
1010
0101
,
1010
0000
0000
0101
0000
0000
1010
0000
0000
0101
0000
0000
1010
0000
0000
0100
0000
0000
1001
0000
0010
0100
1000
0000
0011
0000
0000
1100
0000
0000
0011
0000
0000
1000
0000
0000
0110
0000
0000
1001
0000
0000
0110
0000
0001
0010
0100
0000
,
1001
0000
0000
1001
0000
0000
0110
0000
0000
1001
0000
0000
0110
0000
0000
0001
0000
0000
1100
0000
0000
0011
0000
0000
1100
0000
0001
0010
0100
0000
0011
0000
1000
0100
0010
0000
0101
0000
0000
1010
0000
0000
0101
0000
0000
1010
0000
0000
,
0101
1010
0101
1010
0101
1000
0011
1100
0011
1100
0011
1000
0110
1001
0110
1001
,
0110
1001
0110
1001
0110
0001
1100
0011
1100
0011
1100
0001
1010
0101
1010
0101
,
1010
0101
1010
0101
1010
0001
0110
1001
0110
1001
0110
1000
0011
1100
0011
1100
,
0011
1100
0011
1100
0011
1000
0101
1010
0101
1010
0101
1000
0110
1001
0110
1001
,
0110
1001
0110
1001
0110
0001
1100
0011
1100
0011
1100
0001
1010
0101
1010
0101
,
1010
0101
1010
0101
1010
0001
1100
0011
1100
0011
1100
0001
1010
0101
1010
0101
,
1010
0000
0000
0101
0000
0000
1010
0000
0000
0101
0000
0000
1010
0000
0000
0100
0000
0000
1001
0000
0010
0100
1000
0000
0011
0000
0000
1100
0000
0000
0011
0000
0000
1000
0000
0000
0110
0000
0000
1001
0000
0000
0110
0000
0001
0010
0100
0000
,
1010
0000
0000
1001
0000
0000
0110
0000
0000
1001
0000
0000
0110
0000
0000
0001
0000
0000
1100
0000
0000
0011
0000
0000
1100
0000
0001
0010
0100
0000
0011
0000
1000
0100
0010
0000
0101
0000
0000
1010
0000
0000
0101
0000
0000
1010
0000
0000
,
0101
1010
0101
1010
0101
1000
0011
1100
0011
1100
0011
1000
0110
1001
0110
1001
,
0110
1001
0110
1001
0110
0001
1100
0011
1100
0011
1100
0001
1010
0101
1010
0101
,
1010
0000
0000
0000
0001
0010
0100
1000
0011
0000
0000
0000
1000
0100
0010
0001
1000
0000
0000
0000
0001
0010
0100
1000
0011
0000
0000
0000
1000
0100
0010
0001
,
1000
0000
0000
0000
,
0000
0000
0000
0000
,
0000
0000
0000
0000
,
0000
0000
0000
0000
,
0000
0000
0000
0000
;

//---------------dance-single - ----------------
#NOTES:
     dance-single:
     :
     Medium:
     16:
     1.000,1.000,1.000,0.180,1.000,1052.000,436.000,24.000,0.000,43.000:
0000
0000
0000
0000
,
0000
0000
0000
0000
,
0000
0000
0000
0000
,
0000
0000
0000
0000
,
1011
0000
0100
0000
0010
0000
0100
0000
1010
0100
1010
0001
1100
0010
0101
0010
,
1101
0010
0100
0011
0100
1001
0110
0011
,
1100
0000
0010
0000
0100
0000
0001
0000
1010
0100
1010
0001
1100
0010
0101
1000
,
0110
0001
0000
0000
0000
0000
0000
0000
1000
0000
0000
0000
0000
0000
0000
0000
0011
0000
0000
0000
0000
0000
0000
0000
1100
0000
0000
0000
0000
0000
0000
0000
0010
0000
0000
0000
0000
0000
0000
0000
0101
0000
0000
0000
0000
0000
0000
0000
1010
0000
0000
0000
0000
0000
0000
0000
0001
0000
0000
0000
0000
0000
0000
0000
,
0110
0000
0001
0000
1000
0000
0100
0000
1001
0010
0101
1000
0011
0100
1010
0100
,
1011
0100
0001
1010
0001
0100
0011
0100
,
1011
0100
0011
0100
1001
0100
1010
0001
1010
0100
1001
0010
1100
0001
1010
0100
,
1011
0100
1010
0001
1100
0010
0101
0010
1001
0010
0101
1000
0101
0010
0101
1000
,
0010
0000
0000
0000
,
0000
0000
0000
0000
,
1021
0100
0001
0100
1000
0100
0031
0100
,
1200
0000
0000
0010
0000
0000
0301
0000
0000
0010
0000
0000
1001
0000
0100
1000
0010
0000
0101
0000
1000
0010
0100
0000
,
0021
0100
0001
0100
1030
0100
0011
0100
,
1200
0010
0301
0100
1010
0010
0101
0010
,
2100
3010
0001
0120
1030
0100
0011
0100
,
1200
0310
0001
2010
3100
0010
1001
0100
,
1020
0100
0001
0100
1030
0010
0101
1010
,
0201
0010
1300
0010
2001
0100
3010
0100
,
1021
0100
0001
0100
1000
0100
0031
0100
,
1200
0000
0000
0010
0000
0000
0301
0000
0000
0010
0000
0000
1001
0000
0100
1000
0010
0000
0101
0000
1000
0010
0100
0000
,
0021
0100
0001
0100
1030
0100
0011
0100
,
1200
0010
0301
0100
1010
0010
0101
0010
,
2100
3010
0001
0120
1030
0100
0011
0100
,
1200
0310
0001
2010
3100
0010
1001
0100
,
1020
0100
0001
0100
1030
0010
0101
1010
,
0201
0010
1300
0010
2001
0100
3010
0100
,
1011
0100
0101
0110
1000
0101
0011
0110
,
1100
0010
0101
0110
1000
0101
0011
1010
,
1100
0010
0011
0100
1010
0110
0001
1010
,
1000
0000
0110
0000
0001
0000
0110
0000
1000
0000
0101
0000
1010
0100
1010
0001
,
1200
0010
0001
0310
1000
1010
0001
0110
,
1000
0011
0100
1001
0100
1010
0101
1010
,
1200
0010
0001
0010
1000
0010
0001
0010
,
1000
0000
0000
0000
0010
0000
0000
0000
0001
0000
0000
0000
0010
0000
0000
0000
1300
0000
0000
0000
0010
0000
0000
0000
0001
0100
0010
1000
0001
0100
0010
1000
,
0101
0010
1100
0001
1010
0100
1001
0010
1100
0001
1010
0100
0011
0100
0011
0100
,
1010
0001
0110
1000
0101
0010
1100
0001
1010
0001
0110
0001
1010
0001
1100
0001
,
1010
0100
0011
1000
0101
0010
1100
0010
1001
0100
1010
0100
0011
0100
1001
0100
,
0011
0000
0000
0100
0000
0000
1001
0000
0000
0010
0000
0000
0101
0000
0000
1000
0000
0000
0101
0000
0010
0000
0100
0000
1001
0000
0000
0010
0000
0000
1100
0000
0000
0001
0000
0000
1010
0000
0000
0100
0000
0000
1001
0000
0010
0000
0100
0000
,
1001
0000
0000
0100
0000
0000
1010
0000
0000
0001
0000
0000
1100
0000
0000
0010
0000
0000
0101
0000
0000
0010
0000
0000
0101
0000
0010
0000
0100
0000
1001
0000
0010
0000
0100
0000
1001
0000
0000
0100
0000
0000
0011
0000
0000
1000
0000
0000
,
0110
0001
1010
0100
0011
1000
0101
0010
1001
0100
1010
0001
1100
0010
0101
0010
,
1001
0100
1010
0001
1100
0010
1100
0001
1100
0010
0101
1000
0110
0001
1100
0001
,
0110
0001
1010
0100
1001
0010
1100
0001
1100
0010
0101
1000
0011
1000
0101
0010
,
1101
0010
1100
0001
1010
0100
1001
0010
1100
0001
1010
0100
0011
0100
0011
0100
,
1010
0001
0110
1000
0101
0010
1100
0001
1010
0001
0110
0001
1010
0001
1100
0001
,
1010
0100
0011
1000
0101
0010
1100
0010
1001
0100
1010
0100
0011
0100
1001
0100
,
0011
0000
0000
0100
0000
0000
1001
0000
0000
0010
0000
0000
0101
0000
0000
1000
0000
0000
0101
0000
0010
0000
0100
0000
1001
0000
0000
0010
0000
0000
1100
0000
0000
0001
0000
0000
1010
0000
0000
0100
0000
0000
1001
0000
0010
0000
0100
0000
,
1001
0000
0000
0100
0000
0000
1010
0000
0000
0001
0000
0000
1100
0000
0000
0010
0000
0000
0101
0000
0000
0010
0000
0000
0101
0000
0010
0000
0100
0000
1001
0000
0010
0000
0100
0000
1001
0000
0000
0100
0000
0000
0011
0000
0000
1000
0000
0000
,
0110
0001
1010
0100
0011
1000
0101
0010
1001
0100
1010
0001
1100
0010
0101
0010
,
1001
0100
1010
0001
1100
0010
1100
0001
1100
0010
0101
1000
0110
0001
1100
0001
,
0110
0000
0001
0000
1010
0000
0100
0000
1001
0000
0010
0000
1100
0000
0001
0000
1100
0000
0010
0000
1101
0000
0010
0000
0100
1000
0001
0010
0100
1000
0001
0010
,
0100
0000
0000
1000
0000
0000
0000
0000
,
0000
0000
0000
1000
0000
0000
0100
0000
0010
0000
0001
0000
,
1000
0000
0000
0000
,
0001
0000
0000
0010
0000
0000
0100
0000
,
1000
0000
0000
0000
,
1000
0000
0000
0001
0000
0000
0010
0000
,
0100
0000
0000
0010
0000
0000
0000
0000
,
0000
0000
0000
0000
1000
0000
0000
0000
0000
0000
0000
0000
1000
0000
0000
0000
0000
0000
0000
0000
1000
0000
0000
0000
1000
0100
0010
0001
1000
0100
0010
0001
,
1100
0010
0001
1010
0100
0010
0001
0010
,
0100
0000
0000
0010
0000
0000
1001
0000
0000
0010
0000
0000
1100
0000
0000
0100
0010
0000
1000
0000
0001
0100
0000
0000
,
1010
0100
0001
0010
0100
0010
0001
0010
,
1001
0100
0001
0110
1000
0100
1011
0100
,
1110
0010
0001
0100
1000
0100
0001
0010
,
1100
0010
0001
0101
1000
0100
0011
0100
,
1001
0100
0001
0110
1000
0010
1100
0010
,
0010
0000
0000
0000
0000
0000
0000
0000
0000
0000
0000
0000
0000
0000
0000
0000
0000
0000
0000
0000
1000
0000
0000
0000
1000
0100
0010
0001
1000
0100
0010
0001
,
0110
1000
0101
1000
0110
0000
0101
1000
0110
1000
0101
0000
0110
1000
0011
1000
,
0011
0100
1010
0100
0011
0000
1010
0100
0011
0100
1010
0000
0110
0001
1010
0001
,
1010
0100
0011
0100
1010
0000
0011
0100
1010
0100
0011
0000
1001
0100
0011
1000
,
0110
1000
0101
1000
0110
0000
0101
1000
0110
1000
0101
0000
0110
1000
0101
1000
,
0110
0001
1100
0001
0110
0000
1100
0001
0110
0001
1100
0000
0101
0010
1001
0100
,
0011
1000
0110
1000
0011
0000
0110
1000
0011
1000
0110
0000
1001
0100
0011
0100
,
0011
1000
0101
1000
0011
0000
0101
1000
0011
1000
0101
0000
0101
0010
1001
0100
,
1010
0000
0000
0000
1000
0100
0010
0001
1000
0000
0000
0000
0001
0010
0100
1000
0001
0000
0000
0000
1000
0100
0010
0001
1000
0000
0000
0000
0001
0010
0100
1000
,
0101
0010
1100
0001
1110
0001
1010
0100
1010
0001
1010
0100
1011
0100
0011
0100
,
1001
0010
1100
0001
1110
0001
0110
0001
1010
0100
0011
0100
1011
0100
1001
0100
,
1010
0100
1001
0010
1101
0010
0101
1000
0011
0100
1010
0100
1011
0100
1001
0100
,
0011
0000
0000
0100
0000
0000
1001
0000
0000
0010
0000
0000
1101
0000
0000
0010
0000
0000
0101
0000
0010
0000
0100
0000
1001
0000
0000
0010
0000
0000
1001
0000
0000
0100
0000
0000
1011
0000
0000
0100
0000
0000
1001
0000
0010
0000
0100
0000
,
1001
0000
0000
0100
0000
0000
1001
0000
0000
0010
0000
0000
1101
0000
0000
0010
0000
0000
0101
0000
0000
1000
0000
0000
0101
0000
0010
0000
0100
0000
1001
0000
0010
0000
0100
0000
1011
0000
0000
0100
0000
0000
0011
0000
0000
1000
0000
0000
,
0011
0100
1010
0001
1110
0001
1100
0010
1001
0100
1010
0001
1110
0001
1100
0010
,
1001
0100
1001
0010
1101
0010
1100
0001
1010
0100
1001
0010
1101
0010
1100
0001
,
0110
0001
1010
0100
1011
0100
1010
0001
1100
0010
0101
1000
0111
1000
0101
0010
,
1101
0010
1100
0001
1110
0001
1010
0100
1010
0001
1010
0100
1011
0100
0011
0100
,
1001
0010
1100
0001
1110
0001
0110
0001
1010
0100
0011
0100
1011
0100
1001
0100
,
1010
0100
1001
0010
1101
0010
0101
1000
0011
0100
1010
0100
1011
0100
1001
0100
,
0011
0000
0000
0100
0000
0000
1001
0000
0000
0010
0000
0000
1101
0000
0000
0010
0000
0000
0101
0000
0010
0000
0100
0000
1001
0000
0000
0010
0000
0000
1001
0000
0000
0100
0000
0000
1011
0000
0000
0100
0000
0000
1001
0000
0010
0000
0100
0000
,
1001
0000
0000
0100
0000
0000
1001
0000
0000
0010
0000
0000
1101
0000
0000
0010
0000
0000
0101
0000
0000
1000
0000
0000
0101
0000
0010
0000
0100
0000
1001
0000
0010
0000
0100
0000
1011
0000
0000
0100
0000
0000
0011
0000
0000
1000
0000
0000
,
0011
0100
1010
0001
1110
0001
1100
0010
1001
0100
1010
0001
1110
0001
1100
0010
,
1001
0100
1001
0010
1101
0010
1100
0001
1010
0100
1001
0010
1101
0010
1100
0001
,
0110
0000
0000
0000
0001
0010
0100
1000
0011
0000
0000
0000
1000
0100
0010
0001
1000
0000
0000
0000
0001
0010
0100
1000
0011
0000
0000
0000
1000
0100
0010
0001
,
1000
0000
0000
0000
,
0000
0000
0000
0000
,
0000
0000
0000
0000
,
0000
0000
0000
0000
,
0000
0000
0000
0000
;

//---------------dance-single - ----------------
#NOTES:
     dance-single:
     :
     Challenge:
     17:
     1.000,1.000,1.000,0.180,1.000,1052.000,514.000,24.000,0.000,57.000:
0000
0000
0000
0000
,
0000
0000
0000
0000
,
0000
0000
0000
0000
,
0000
0000
0000
0000
,
1011
0000
0100
0000
0010
0000
0100
0000
1010
0100
1010
0001
1100
0010
0101
0010
,
1101
0010
0100
0011
0100
1001
0110
0011
,
1100
0000
0010
0000
0100
0000
0001
0000
1010
0100
1010
0001
1100
0010
0101
1000
,
0110
0001
0000
0000
0000
0000
0000
0000
1000
0000
0000
0000
0000
0000
0000
0000
0011
0000
0000
0000
0000
0000
0000
0000
1100
0000
0000
0000
0000
0000
0000
0000
0010
0000
0000
0000
0000
0000
0000
0000
0101
0000
0000
0000
0000
0000
0000
0000
1010
0000
0000
0000
0000
0000
0000
0000
0001
0000
0000
0000
0000
0000
0000
0000
,
0110
0000
0001
0000
1000
0000
0100
0000
1001
0010
0101
1000
0011
0100
1010
0100
,
1011
0100
0001
1010
0001
0100
0011
0100
,
1011
0100
0011
0100
1001
0100
1010
0001
1010
0100
1001
0010
1100
0001
1010
0100
,
1011
0100
1010
0001
1100
0010
0101
0010
1001
0010
0101
1000
0101
0010
0101
1000
,
0010
0000
0000
0000
,
0000
0000
0000
0000
,
1021
0100
0001
0100
1000
0100
0031
0100
,
1200
0000
0000
0010
0000
0000
0301
0000
0000
0010
0000
0000
1001
0000
0100
1000
0010
0000
0101
0000
1000
0010
0100
0000
,
0021
0100
0001
0100
1030
0100
0011
0100
,
1200
0010
0301
0100
1010
0010
0101
0010
,
2100
3010
0001
0120
1030
0100
0011
0100
,
1200
0310
0001
2010
3100
0010
1001
0100
,
1020
0100
0001
0100
1030
0010
0101
1010
,
0201
0010
1300
0010
2001
0100
3010
0100
,
1021
0100
0001
0100
1000
0100
0031
0100
,
1200
0000
0000
0010
0000
0000
0301
0000
0000
0010
0000
0000
1001
0000
0100
1000
0010
0000
0101
0000
1000
0010
0100
0000
,
0021
0100
0001
0100
1030
0100
0011
0100
,
1200
0010
0301
0100
1010
0010
0101
0010
,
2100
3010
0001
0120
1030
0100
0011
0100
,
1200
0310
0001
2010
3100
0010
1001
0100
,
1020
0100
0001
0100
1030
0010
0101
1010
,
0201
0010
1300
0010
2001
0100
3010
0100
,
1011
0100
0101
0110
1000
0101
0011
0110
,
1100
0010
0101
0110
1000
0101
0011
1010
,
1100
0010
0011
0100
1010
0110
0001
1010
,
1000
0000
0110
0000
0001
0000
0110
0000
1000
0000
0101
0000
1010
0100
1010
0001
,
1200
0010
0001
0310
1000
1010
0001
0110
,
1000
0011
0100
1001
0100
1010
0101
1010
,
1200
0010
0001
0010
1000
0010
0001
0010
,
1000
0000
0000
0000
0010
0000
0000
0000
0001
0000
0000
0000
0010
0000
0000
0000
1300
0000
0000
0000
0010
0000
0000
0000
0001
0100
0010
1000
0001
0100
0010
1000
,
0101
0010
1100
0001
1110
0001
1010
0100
1010
0001
1010
0100
1011
0100
0011
0100
,
1001
0010
1100
0001
1110
0001
0110
0001
1010
0100
0011
0100
1011
0100
1001
0100
,
1010
0100
1001
0010
1101
0010
0101
1000
0011
0100
1010
0100
1011
0100
1001
0100
,
0011
0000
0000
0100
0000
0000
1001
0000
0000
0010
0000
0000
1101
0000
0000
0010
0000
0000
0101
0000
0010
0000
0100
0000
1001
0000
0000
0010
0000
0000
1001
0000
0000
0100
0000
0000
1011
0000
0000
0100
0000
0000
1001
0000
0010
0000
0100
0000
,
1001
0000
0000
0100
0000
0000
1001
0000
0000
0010
0000
0000
1101
0000
0000
0010
0000
0000
0101
0000
0000
1000
0000
0000
0101
0000
0010
0000
0100
0000
1001
0000
0010
0000
0100
0000
1011
0000
0000
0100
0000
0000
0011
0000
0000
1000
0000
0000
,
0011
0100
1010
0001
1110
0001
1100
0010
1001
0100
1010
0001
1110
0001
1100
0010
,
1001
0100
1001
0010
1101
0010
1100
0001
1010
0100
1001
0010
1101
0010
1100
0001
,
0110
0001
1010
0100
1011
0100
1010
0001
1100
0010
0101
1000
0111
1000
0101
0010
,
1101
0010
1100
0001
1110
0001
1010
0100
1010
0001
1010
0100
1011
0100
0011
0100
,
1001
0010
1100
0001
1110
0001
0110
0001
1010
0100
0011
0100
1011
0100
1001
0100
,
1010
0100
1001
0010
1101
0010
0101
1000
0011
0100
1010
0100
1011
0100
1001
0100
,
0011
0000
0000
0100
0000
0000
1001
0000
0000
0010
0000
0000
1101
0000
0000
0010
0000
0000
0101
0000
0010
0000
0100
0000
1001
0000
0000
0010
0000
0000
1001
0000
0000
0100
0000
0000
1011
0000
0000
0100
0000
0000
1001
0000
0010
0000
0100
0000
,
1001
0000
0000
0100
0000
0000
1001
0000
0000
0010
0000
0000
1101
0000
0000
0010
0000
0000
0101
0000
0000
1000
0000
0000
0101
0000
0010
0000
0100
0000
1001
0000
0010
0000
0100
0000
1011
0000
0000
0100
0000
0000
0011
0000
0000
1000
0000
0000
,
0011
0100
1010
0001
1110
0001
1100
0010
1001
0100
1010
0001
1110
0001
1100
0010
,
1001
0100
1001
0010
1101
0010
1100
0001
1010
0100
1001
0010
1101
0010
1100
0001
,
0110
0000
0001
0000
1010
0000
0100
0000
1011
0000
0100
0000
1010
0000
0001
0000
1100
0000
0010
0000
1101
0000
0010
0000
0100
1000
0001
0010
0100
1000
0001
0010
,
0100
0000
0000
1000
0000
0000
0000
0000
,
0000
0000
0000
1000
0000
0000
0100
0000
0010
0000
0001
0000
,
1000
0000
0000
0000
,
0001
0000
0000
0010
0000
0000
0100
0000
,
1000
0000
0000
0000
,
1000
0000
0000
0001
0000
0000
0010
0000
,
0100
0000
0000
0010
0000
0000
0000
0000
,
0000
0000
0000
0000
1000
0000
0000
0000
0000
0000
0000
0000
1000
0000
0000
0000
0000
0000
0000
0000
1000
0000
0000
0000
1000
0100
0010
0001
1000
0100
0010
0001
,
1100
0010
0001
1010
0100
0010
0001
0010
,
0100
0000
0000
0010
0000
0000
1001
0000
0000
0010
0000
0000
1100
0000
0000
0100
0010
0000
1000
0000
0001
0100
0000
0000
,
1010
0100
0001
0010
0100
0010
0001
0010
,
1001
0100
0001
0110
1000
0100
1011
0100
,
1110
0010
0001
0100
1000
0100
0001
0010
,
1100
0010
0001
0101
1000
0100
0011
0100
,
1001
0100
0001
0110
1000
0010
1100
0010
,
0001
0000
0000
0000
0000
0000
0000
0000
0000
0000
0000
0000
0000
0000
0000
0000
0000
0000
0000
0000
1000
0000
0000
0000
1000
0100
0010
0001
1000
0100
0010
0001
,
0110
1000
0101
1000
0111
0000
0101
1000
0110
1000
0101
0000
0111
1000
0011
1000
,
0011
0100
1010
0100
1011
0000
1010
0100
0011
0100
1010
0000
1110
0001
1010
0001
,
1010
0100
0011
0100
1011
0000
0011
0100
1010
0100
0011
0000
1011
0100
0011
1000
,
0110
1000
0101
1000
0111
0000
0101
1000
0110
1000
0101
0000
0111
1000
0101
1000
,
0110
0001
1100
0001
1110
0000
1100
0001
0110
0001
1100
0000
1101
0010
1001
0100
,
0011
1000
0110
1000
0111
0000
0110
1000
0011
1000
0110
0000
1011
0100
0011
0100
,
0011
1000
0101
1000
0111
0000
0101
1000
0011
1000
0101
0000
1101
0010
1001
0100
,
1010
0000
0000
0000
1000
0100
0010
0001
1100
0000
0000
0000
0001
0010
0100
1000
0001
0000
0000
0000
1000
0100
0010
0001
1100
0000
0000
0000
0001
0010
0100
1000
,
0011
1100
0011
1100
0011
1000
0101
1010
0101
1010
0101
1000
0110
1001
0110
1001
,
0110
1001
0110
1001
0110
0001
1100
0011
1100
0011
1100
0001
1010
0101
1010
0101
,
1010
0101
1010
0101
1010
0001
1100
0011
1100
0011
1100
0001
1010
0101
1010
0101
,
1010
0000
0000
0101
0000
0000
1010
0000
0000
0101
0000
0000
1010
0000
0000
0100
0000
0000
0001
0000
0100
0000
1000
0000
0011
0000
0000
1100
0000
0000
0011
0000
0000
1000
0000
0000
0110
0000
0000
1001
0000
0000
0100
0000
0001
0000
1000
0000
,
0110
0000
0000
1001
0000
0000
0110
0000
0000
1001
0000
0000
0110
0000
0000
0001
0000
0000
1100
0000
0000
0011
0000
0000
1000
0000
0010
0000
0100
0000
0001
0000
1000
0000
0010
0000
0101
0000
0000
1010
0000
0000
0101
0000
0000
1010
0000
0000
,
0101
1010
0101
1010
0101
1000
0011
1100
0011
1100
0011
1000
0110
1001
0110
1001
,
0110
1001
0110
1001
0110
0001
1100
0011
1100
0011
1100
0001
1010
0101
1010
0101
,
1010
0101
1010
0101
1010
0001
0110
1001
0110
1001
0110
1000
0011
1100
0011
1100
,
0011
1100
0011
1100
0011
1000
0101
1010
0101
1010
0101
1000
0110
1001
0110
1001
,
0110
1001
0110
1001
0110
0001
1100
0011
1100
0011
1100
0001
1010
0101
1010
0101
,
1010
0101
1010
0101
1010
0001
1100
0011
1100
0011
1100
0001
1010
0101
1010
0101
,
1010
0000
0000
0101
0000
0000
1010
0000
0000
0101
0000
0000
1010
0000
0000
0100
0000
0000
0001
0000
0100
0000
1000
0000
0011
0000
0000
1100
0000
0000
0011
0000
0000
1000
0000
0000
0110
0000
0000
1001
0000
0000
0010
0000
0001
0000
1000
0000
,
0110
0000
0000
1001
0000
0000
0110
0000
0000
1001
0000
0000
0110
0000
0000
0001
0000
0000
1100
0000
0000
0011
0000
0000
1000
0000
0001
0000
0010
0000
0100
0000
1000
0000
0010
0000
0101
0000
0000
1010
0000
0000
0101
0000
0000
1010
0000
0000
,
0101
1010
0101
1010
0101
1000
0011
1100
0011
1100
0011
1000
0110
1001
0110
1001
,
0110
1001
0110
1001
0110
0001
1100
0011
1100
0011
1100
0001
1010
0101
1010
0101
,
1010
0000
0000
0000
0001
0010
0100
1000
0011
0000
0000
0000
1000
0100
0010
0001
1000
0000
0000
0000
0001
0010
0100
1000
0011
0000
0000
0000
1000
0100
0010
0001
,
1000
0000
0000
0000
,
0000
0000
0000
0000
,
0000
0000
0000
0000
,
0000
0000
0000
0000
,
0000
0000
0000
0000
;
